битовая музыка








































новинки музыки 2013 2014 new rap рэп русский французский немецкий хип-хоп hip-hop Tanir карандаш Рус DIO FLEG - Там где темнота ( На … Битовая музыка - Simple Битовая музыка - Butorniy Битовая музыка - Chainsaw Битовая музыка - Night Buzz Битовая музыка - Fear and Loathing Sound Forge - Unreal Superhero KeyGen (знаменитая 8 d05. музыка … «Битовая Музыка» 3 песни слушать онлайн или скачать mp3 Все песни «Битовая Музыка» слушайте. Не нашли среди результатов то, что искали? Попробуйте … На этой странице вы можете бесплатно скачать популярные альбомы и песни Битовая музыка 7830454 в mp3-формате, а также слушать их онлайн.. [ … 2013/10/15 · Video embedded · 8-битная музыка по новому - "SUPER MARIO 2013" MrKot86 Subscribe Subscribed Unsubscribe 91 91 Loading... Loading... Working... 2013/4/17 · Video embedded · Mix - Major Lazer ft. Amber -- Get Free (What So Not Remix) YouTube Major Lazer - Get Free (Track 12 of 26) | Moshcam - Duration: 4:50. … Чиптюн - музыка, синтезируемая в реальном времени аудиочипом компьютера или игровой приставки. Музыка при этом как таковая является не оцифрованной … See more of Enerji Club Baku by logging into Facebook Message this Page, learn about upcoming events and more. Log In or. клубная битовая музыка. See More Renat … Самая классная, битовая музыка у нас! Audio files 64 4:37 Years & Years. Hit Music pinned post 9 May at 8:54 am Actions Report 3:21 Imagine Dragons – … Смотреть что такое "бит-музыка" в других словарях: Бит-музыка — Направление: Рок музыка Истоки: рок н ролл, скиффл, ритм энд блюз Место и время … Музыка Производство Учебник: Назад к основам - Битовая глубина,. чем музыка), где содержание вы записываете выиграют от более высокой частотой … Музыка несла настроение агрессии, анархии, злой энергии, но при этом содержала и некий конструктивный компонент. Как правило, хардкоровые … Музыка / Мультимедиа Мультфильмы Фильмы / AVI / MKV / MP4 Фильмы / HD / Full HD / Blu-Ray / 2K / 4K Громче чем Бомба. Убойные Ништяки (Sound Clinic - Bass … Битовая глубина : 16 бит Метод сжатия : С потерями Размер потока : 93,7 Мбайт (2%) Язык : Ukrainian Default : Нет Forced : Нет Аудио #3 Идентификатор : 4. Битовая глубина : 24 бит Размер потока : 331 Мбайт (100%) Библиотека кодирования : libFLAC 1.2.1 (UTC 2007-09-17. \Раздачи\Академическая русская хоровая капелла 2\Музыка … Битовая глубина : 24 бит Размер потока : 86,4 Мбайт (100%) Библиотека кодирования : libFLAC 1.2.1 (UTC 2007-09-17. \Михаил\Музыка\Александр … Музыка Видео клипы Аудиокниги Текстовые книги Фильмы Музыка Игры. 48,0 КГц Битовая глубина : 16 бит Метод сжатия : С потерями Размер потока : 61,9 … Музыка Игры Программы Книги Спорт Остальное Наши проекты. 4:2:0 Битовая глубина : 8 бит Тип развёртки : Прогрессивная Метод сжатия : С потерями … Информация о фильме Название: Три девятки Оригинальное название: Triple 9 Год выхода: 2016 Жанр: криминал, драма, триллер Режиссер: Джон Хиллкоут В … Торрент трекер ТОРРЕНТИНО - скачайте музыка Yanni Voices Live In Concert 2009 через торрент. Битовая скорость: 2,539 Kbps {Principal} Битовая скорость: … Нюша - Сборник видеоклипов (2009-2017) WEBRip- Производство: Россия Жанр: Музыка, клипы Треклист: 1. Больно 2. Вою на луну 3. Выбирать чудо 4. Выше 5. … Музыка Антиквариат, винтаж, искусство OZON.digital Подарочные сертификаты Авиабилеты и Ж/Д билеты Уцененные товары Товары для взрослых. Музыка Игры Программы Торренты Вход Регистрация Найти Скачать · 80.78 МБ. 32-битовая видеокарта и монитор с разрешением 1280x960; Adobe … Музыка (*1 *2 *3). Аудиоформаты MP3 Формат медиафайла: формат MP3 (MPEG-1 Layer3. Битовая глубина: 16, 24 бит Частота дискретизации: 8, 11,025, 12, 16, … Вера Брежнева - Сборник видеоклипов (2010-2017) WEBRip- Производство: Россия Жанр: Музыка, клипы Треклист: 1. Dan Balan и Вера Брежнева - Лепестками … Одержимость / Whiplash (2014, музыка, драма, BDRip 1080p) | RUS Transfer |. Битовая глубина : 8 бит Тип развёртки : Прогрессивная Бит/(Пиксели*Кадры) : … Музыка (*1 *2 *3). Аудиоформаты MP3 Формат медиафайла: формат MP3 (MPEG-1 Layer3. Битовая глубина: 16, 24 бит Частота дискретизации: 8, 11,025, 12, 16, … Битовая глубина : 8 бит Тип развёртки : Прогрессивная Бит/(Пиксели*Кадры) : 0.179. Rammstein: Париж! / Rammstein - Paris: Live [2017 документальный музыка … Битовая глубина : 8 бит Тип развёртки : Прогрессивная Порядок развёртки : Верхнее поле первое. Главная » Электронная музыка » Электронная музыка … Клипы » Скачать торрент Ольга Романовская - Музыка [2014, Pop, WEBRip 1080p]. Битовая глубина : 8 бит Тип развёртки : Прогрессивная Бит/(Пиксели*Кадры) …Скачать торрент бесплатно фильмы, игры, музыка, книги без. Битовая глубина : 8 бит Тип развёртки : Прогрессивная Размер потока оригинала : 2, словно сон, … Музыка Рок- музыка Документалистика Программы, Дизайн, ОС Фотохостинг. Битовая глубина : 16 бит Метод сжатия : С потерями Размер потока : 239 … Битовая глубина : 8 бит Тип развёртки : Чересстрочная Порядок развёртки : Верхнее поле первое. Классическая музыка DVD и HD Видео "Paganin i der … Музыка Музыка (SD Video) Музыка (HD Video) Популярная музыка Рок-музыка Блюзовая и Джазовая музыка New Country. Битовая глубина : 16 бит Метод … Музыка Игры Программы Книги Спорт Остальное Наши проекты. 4:2:0 Битовая глубина : 8 бит Тип развёртки : Прогрессивная Бит/(Пиксели*Кадры) : 0.158 … Битовая глубина : 8 бит Тип развёртки : Прогрессивная Бит/(Пиксели*Кадры) : 0.346. Музыка шикарнейшая. Красивая история-путешествие. Главный герой … Музыка Рок- музыка Документалистика Программы, Дизайн, ОС Фотохостинг. Битовая глубина : 8 бит Тип развёртки : Прогрессивная Метод сжатия : С … Скачать Бьянка - Музыка / [2014, R&B, Dance, WEBRip 1080p] - торрент Нажмите на синюю кнопку ниже, чтобы скачать. Битовая глубина : 8 бит Тип развёртки … Битовая глубина : 2 бит Общее Полное имя : D:\Роздачі\Sade-Live.In.Concert.1993.DVD-5\VIDEO_TS\VIDEO_TS.IFO. Главная » Популярная музыка » Видео, DVD Video, HD Video (поп-музыка) » Зарубежная поп-музыка … музыка софт игры книги спорт разное Каталог торрентов » Видео. Битовая глубина : 8 бит Тип развёртки : Прогрессивная Бит/(Пиксели*Кадры) : 0.294 … Музыка Порно и Эротика Скачать торрент » Видео » Российские сериалы. Битовая глубина : 8 бит Тип развёртки : Прогрессивная Бит/(Пиксели*Кадры) : …